Uploaded image for project: 'JDK'
  1. JDK
  2. JDK-8094806

MP4 with mono track garbled in Linux

    Details

    • Type: Bug
    • Status: Closed
    • Priority: P3
    • Resolution: Duplicate
    • Affects Version/s: None
    • Fix Version/s: 8u40
    • Component/s: javafx
    • Labels:
      None
    • Environment:

      Mint 15,16,17 on Macbook Pro 5.5. Note: av lib sandbox created from
      Previous mint/ubuntu version for mint 17.

      Description

      Playing videos with media control in Java FX under Linux Mint 15,16,17
      and upstream Ubuntu is garbled. MP4 files are produced with Flip camera
      and have the following signature below. Key difference with MP4
      videos that do play is the mono track. Other players (VLC, MPLayer, Xine)
      all work fine.

        Metadata:
          major_brand : MSNV
          minor_version : 19464262
          compatible_brands: MSNVmp42isom
          creation_time : 2014-01-16 12:25:42
        Duration: 00:01:11.70, start: 0.000033, bitrate: 10438 kb/s
          Stream #0:0(jpn): Video: h264 (Main) (avc1 / 0x31637661), yuv420p, 1280x720, 10370 kb/s, 30 fps, 30 tbr, 30k tbn, 60k tbc
          Metadata:
            creation_time : 2014-01-16 12:25:42
            handler_name : ?Video Media Handler
          Stream #0:1(jpn): Audio: aac (mp4a / 0x6134706D), 44100 Hz, mono, fltp, 64 k

        Attachments

          Issue Links

            Activity

              People

              • Assignee:
                stayer Kirill Kirichenko (Inactive)
                Reporter:
                duke J. Duke (Inactive)
              • Votes:
                0 Vote for this issue
                Watchers:
                2 Start watching this issue

                Dates

                • Created:
                  Updated:
                  Resolved:
                  Imported: